Thugs Of Hindostan 2018 Hindi Movies PDVDRip x264 Clean Audio AAC...

seeders: 416
leechers: 19
updated:
Added by nehalpuja in Other


[ LIMITED VPN OFFER ]
strongly advises you to use NordVPN while downloading torrents.
NordVPN is the safest VPN on the market, and the fastest VPN as well.
No IP Log is saved using NordVPN, avoid other VPN providers and choose the safest one.
Click here and buy NordVPN it's on rebates today!
We were able to verify your IP: 185.253.6.146, country: Unknown error type: [8] Undefined variable: city
string 'k.php' (length=5)
int 152
.
If we can do that, others can too, protect your privacy with NordVPN.
is trying the best for you!
[ LIMITED VPN OFFER ]


Description

Thugs Of Hindostan 2018 Hindi Movies PDVDRip x264 Clean Audio AAC New Source with Sample ☻rDX☻
===============================================================================================

SCREEN SHOTS:  

 

or

http://iphonehosting.eu/2018/11/a/offline/1.html  

File size : 717 MiB
Duration : 2 h 34 min
Overall bit rate : 647 kb/s
Movie name : Thugs Of Hindostan 2018 Hindi Movies PDVDRip x264 Clean Audio AAC New Source ☻rDX☻

Video
ID : 2
Format : AVC
Format/Info : Advanced Video Codec
Format profile : [email protected] 
Format settings, CABAC : Yes
Format settings, ReFrames : 4 frames
Codec ID : V_MPEG4/ISO/AVC
Duration : 2 h 34 min
Bit rate : 548 kb/s
Width : 720 pixels
Height : 288 pixels
Display aspect ratio : 2.500
Frame rate mode : Constant
Frame rate : 25.000 FPS
Color space : YUV
Chroma subsampling : 4:2:0
Bit depth : 8 bits
Scan type : Progressive
Bits/(Pixel*Frame) : 0.106
Stream size : 596 MiB (83%)
Title : ☻rDX☻
Writing library : x264

Audio
ID : 1
Format : MPEG Audio
Format version : Version 2
Format profile : Layer 3
Mode : Joint stereo
Mode extension : MS Stereo
Codec ID : A_MPEG/L3
Codec ID/Hint : MP3
Duration : 2 h 34 min
Bit rate mode : Constant
Bit rate : 96.0 kb/s
Channel(s) : 2 channels
Sampling rate : 22.05 kHz
Compression mode : Lossy
Stream size : 106 MiB (15%)
Title : ☻rDX☻
Writing library : LAME3.99.5
Language : English
Default : Yes
Forced : No

http://www.imdb.com/title/tt5970844


Sharing Widget


Download torrent
Size: 724.8 MB
seeders:416
leechers:19
Thugs Of Hindostan 2018 Hindi Movies PDVDRip x264 Clean Audio AAC... - (760007884 Bytes)



To share this torrent use the code below and insert it into comments, status messages, forum posts or your signature.

Torrent: Thugs Of Hindostan 2018 Hindi Movies PDVDRip x264 Clean Audio AAC...

Trackers

tracker name
udp://tracker.coppersurfer.tk:6969/announce
udp://tracker.leechers-paradise.org:6969/announce
udp://tracker.pirateparty.gr:6969/announce
udp://eddie4.nl:6969/announce
udp://tracker.zer0day.to:1337/announce
udp://9.rarbg.me:2710/announce
udp://9.rarbg.to:2710/announce
udp://public.popcorn-tracker.org:6969/announce
udp://p4p.arenabg.ch:1337/announce
udp://tracker.vanitycore.co:6969/announce
udp://ipv4.tracker.harry.lu:80/announce
udp://tracker.opentrackr.org:1337/announce
udp://p4p.arenabg.com:1337/announce
udp://shadowshq.yi.org:6969/announce
udp://tracker.zer0day.to:1337/announce
udp://tracker.leechers-paradise.org:6969/announce
udp://coppersurfer.tk:6969/announce
µTorrent compatible trackers list

Locations

name
KickassTorrents
Torrent hash: 2AB274DF5E994719241547829D559E0A73B36236

[ LIMITED VPN OFFER ]
strongly advises you to use NordVPN while downloading torrents.
NordVPN is the safest VPN on the market, and the fastest VPN as well.
No IP Log is saved using NordVPN, avoid other VPN providers and choose the safest one.
Click here and buy NordVPN it's on rebates today!
We were able to verify your IP: 185.253.6.146, country: Unknown error type: [8] Undefined variable: city
string 'single.php' (length=10)
int 269
.
If we can do that, others can too, protect your privacy with NordVPN.
is trying the best for you!
[ LIMITED VPN OFFER ]


All Comments

*comments box temporarily disabled*
Report a bug